#TITLE:Super Dancer;
#SUBTITLE:;
#ARTIST:SDO;
#TITLETRANSLIT:Super Dancer;
#SUBTITLETRANSLIT:;
#ARTISTTRANSLIT:SDO;
#CREDIT:;
#BANNER:Super Dancer-bn.png;
#BACKGROUND:Super Dancer-bg.png;
#LYRICSPATH:;
#CDTITLE:pm4cd.png;
#MUSIC:Super Dancer.mp3;
#OFFSET:0.380;
#SAMPLESTART:48.030;
#SAMPLELENGTH:20.000;
#SELECTABLE:YES;
#BPMS:0.000=68.860,23.000=137.720,503.000=68.860;
#STOPS:;
#BGCHANGES:;
// cache tags:
#FIRSTBEAT:11.875;
#LASTBEAT:528.000;
#SONGFILENAME:Songs/Music V.I.P ^_^/Super Dancer/Super Dancer.sm;
#HASMUSIC:1;
#HASBANNER:1;
#MUSICLENGTH:254.072;
// end cache tags

//---------------dance-single - ----------------
#NOTES:
     dance-single:
     :
     Hard:
     15:
     1.000,1.000,1.000,0.169,0.823,1342.000,526.000,43.000,0.000,98.000:
0000
0000
0000
0000
,
0000
0000
0000
0000
,
0000
0000
0000
0000
0000
0000
0000
0000
0000
0000
0000
0000
0000
0000
0000
0000
0000
0000
0000
0000
0000
0000
0000
0000
0000
0000
0000
0000
0000
0000
0000
1001
,
0000
0000
0000
0000
0000
0000
0000
0000
0000
0000
0000
0000
0000
0000
0000
0000
0000
0000
0000
0000
0000
0010
0000
0000
0000
0000
0000
0000
0000
0000
0000
0000
,
0000
0000
0000
0100
0000
0000
0000
0000
,
0000
1000
0000
0000
0000
0000
0000
0000
0000
0000
0000
0000
1001
0010
0001
0010
,
0001
0010
0100
0000
0001
0010
0001
0010
0001
0010
0100
0000
1000
0100
1000
0100
,
1000
0100
0010
0000
0100
0010
0100
0010
0100
0010
0001
0000
1000
0010
1000
0010
,
1000
0010
0001
0000
0001
0100
0001
0100
0001
0100
1000
0000
0001
1000
0001
1000
,
0001
1000
0010
0000
0100
1000
0100
1000
0100
1000
0001
0000
1010
0100
0010
0100
,
1010
0100
1000
0000
0011
0100
1000
0100
0011
0100
0010
0000
1001
0100
0001
0100
,
1001
0100
1000
0000
1100
0010
0001
0010
1100
0010
0001
0000
0110
0001
1000
0001
,
0110
1000
0100
0000
0011
1000
0010
1000
0011
0100
1000
0000
0101
0000
1100
1100
,
1100
0000
0110
0000
0011
0101
0011
0101
0011
0101
0011
0101
1011
0100
1000
0100
,
0011
0100
1000
0100
0011
0100
1000
0100
0011
0100
1000
0100
0011
0100
0010
0001
,
1010
0100
0010
0001
1010
0100
0010
0001
1010
0100
0010
0001
1010
0100
0010
0100
,
1001
0100
0010
0100
1001
0100
0010
0100
1001
0100
0010
0100
1001
0000
0000
0000
,
0110
0000
0000
0000
1100
0000
0000
0000
0011
0000
0000
0000
1010
0100
0010
0001
,
1010
0100
0010
0001
1010
0100
0010
0001
1010
0100
0010
0001
0101
0010
0100
1000
,
0101
0010
0100
1000
0101
0010
0100
1000
0101
0010
0100
1000
1010
0100
0010
0001
,
1010
0100
0010
0001
1010
0100
0010
0001
1010
0100
0010
0001
1100
0000
0110
0110
,
0110
0000
1001
0000
0110
1100
0110
1100
0110
1100
0110
1100
0111
1000
0001
1000
,
0110
1000
0001
1000
0110
1000
0001
1000
0110
1000
0001
1000
0110
1000
0001
1000
,
1010
0001
0010
0100
1010
0001
0010
0100
1010
0001
0010
0100
0011
0100
0010
0100
,
0011
0100
0010
0100
0011
0100
0010
0100
0011
0100
0010
0100
1001
0100
0010
0100
,
1001
0100
0010
0100
1001
0100
0010
0100
1001
0100
0010
0100
1001
0100
0001
0100
,
1010
0100
0001
0100
1010
0100
0001
0100
1010
0100
0001
0100
0110
0001
0010
0001
,
0110
0001
0010
0001
0110
0001
0010
0001
0110
0001
0010
0001
1010
0100
0010
0001
,
1010
0100
0010
0001
1010
0100
0010
0001
1010
0100
0010
0001
0101
0110
1010
0000
,
0101
1010
0101
1010
0101
1010
0101
1010
0101
1010
0101
1010
0112
0000
1000
0000
,
1100
0010
1023
0100
1001
0001
1230
1000
,
1001
0010
0312
1000
0110
0100
2013
0100
,
0011
0001
3120
0001
1001
0100
1130
0000
,
0110
0000
0011
0000
0110
0000
1200
1000
,
1001
0010
1320
0100
1001
0001
1230
1000
,
1001
0010
0312
1000
0110
0100
2013
0100
,
0011
0000
0001
0000
3120
0000
0001
0000
1001
0000
0100
0000
1031
1010
1001
1010
,
1001
1010
1001
1010
1001
1010
1001
1010
1001
1010
1001
1010
0111
0000
1000
0000
,
0101
0000
0010
0100
0000
0000
0010
0000
0101
0000
0010
0000
1100
0000
1000
0000
,
0011
0000
0100
1000
0000
0000
0001
0000
0110
0000
1000
0000
0101
0000
1000
0000
,
0011
0000
0100
0001
0000
0000
1000
0000
0110
0000
0001
0000
1100
0000
0010
0000
,
1001
0000
0010
0001
1100
0110
1100
0010
0100
0011
1100
0011
2101
0000
0010
0000
,
0011
0000
0001
0100
0000
0000
0010
0000
0101
0000
0010
3000
0120
0000
1000
0000
,
0101
0000
1000
0100
0000
0000
0001
0000
1100
0000
0100
0030
1002
0000
0010
0000
,
1100
0000
0010
0100
0000
0000
1000
0000
0110
0000
0010
0003
1010
0000
0101
1010
,
0101
0000
0001
0010
0101
1010
0101
1010
0101
1010
0101
1010
1100
0000
0001
0000
,
1010
0100
0010
0001
1100
0001
0010
0001
,
1010
0100
0010
1000
0110
0001
0010
0100
,
1001
0010
0100
0001
0110
1000
0100
0001
,
1010
0100
1000
0010
0110
0001
0010
0001
,
1100
0001
0100
1000
0101
0010
0001
0100
,
0011
1000
0100
1000
0110
0001
0010
0001
,
1010
0100
1000
0010
0101
0010
0001
0100
,
0011
1000
0010
0100
0101
0010
0100
1000
,
1100
0001
0010
0001
1010
0010
0001
0010
,
0110
0001
1000
0001
1010
0100
0010
0001
,
0101
0010
0001
0100
1100
1000
0100
0010
,
1001
0001
0010
0100
0110
1000
0010
0100
,
1010
0001
0100
0010
0101
1000
0001
0010
,
1100
0001
1000
0100
0011
0100
0010
0100
,
0101
0000
0010
0000
0100
0000
0010
0000
1010
0000
0100
0000
0011
0011
0011
0110
,
1001
0110
1001
0110
1001
0110
1001
0110
0001
0000
0010
0000
0111
1000
0001
1000
,
0110
1000
0001
1000
0110
1000
0001
1000
0110
1000
0001
1000
0110
1000
0001
1000
,
1010
0001
0010
0100
1010
0001
0010
0100
1010
0001
0010
0100
0011
0100
0010
0100
,
0011
0100
0010
0100
0011
0100
0010
0100
0011
0100
0010
0100
1001
0100
0010
0100
,
1001
0100
0010
0100
1001
0100
0010
0100
1001
0100
0010
0100
1001
0100
0001
0100
,
1010
0100
0001
0100
1010
0100
0001
0100
1010
0100
0001
0100
0110
0001
0010
0001
,
0110
0001
0010
0001
0110
0001
0010
0001
0110
0001
0010
0001
1010
0100
0010
0001
,
1010
0100
0010
0001
1010
0100
0010
0001
1010
0100
0010
0001
0101
0110
1010
0000
,
0101
1010
0101
1010
0101
1010
0101
1010
0101
1010
0101
1010
0112
0000
1000
0000
,
1100
0010
1023
0100
1001
0001
1230
1000
,
1001
0010
0312
1000
0110
0100
2013
0100
,
0011
0001
3120
0001
1001
0100
1130
0000
,
0110
0000
0011
0000
0110
0000
1200
1000
,
1001
0010
1320
0100
1001
0001
1230
1000
,
1001
0010
0312
1000
0110
0100
2013
0100
,
0011
0000
0001
0000
3120
0000
0001
0000
1001
0000
0100
0000
1031
1010
1001
1010
,
1001
1010
1001
1010
1001
1010
1001
1010
1001
1010
1001
1010
0111
0000
1000
0000
,
0101
0000
0010
0100
0000
0000
0010
0000
0101
0000
0010
0000
1100
0000
1000
0000
,
0011
0000
0100
1000
0000
0000
0001
0000
0110
0000
1000
0000
0101
0000
1000
0000
,
0011
0000
0100
0001
0000
0000
1000
0000
0110
0000
0001
0000
1100
0000
0010
0000
,
1001
0000
0010
0001
1100
0110
1100
0010
0100
0011
1100
0011
1101
0000
0100
0000
,
0011
0000
1000
0100
0000
0000
0001
0000
1001
0000
0010
0000
0110
0000
0010
0000
,
1100
0000
0010
0100
0000
0000
0010
0000
1001
0000
0100
0000
1010
0000
0001
0000
,
0110
0000
0001
0010
0000
0000
0100
0000
1100
0000
0001
0000
1010
0000
0101
1010
,
0101
0000
0001
0010
0101
1010
0101
1010
0101
1010
0101
1010
1011
0100
1000
0100
,
0011
0100
1000
0100
0011
0100
1000
0100
0011
0100
1000
0100
0011
0100
0010
0001
,
1010
0100
0010
0001
1010
0100
0010
0001
1010
0100
0010
0001
1010
0100
0010
0100
,
1001
0100
0010
0100
1001
0100
0010
0100
1001
0100
0010
0100
1001
0000
0000
0000
,
0110
0000
0000
0000
1100
0000
0000
0000
0011
0000
0000
0000
1010
0100
0010
0001
,
1010
0100
0010
0001
1010
0100
0010
0001
1010
0100
0010
0001
0101
0010
0100
1000
,
0101
0010
0100
1000
0101
0010
0100
1000
0101
0010
0100
1000
1010
0100
0010
0001
,
1010
0100
0010
0001
1010
0100
0010
0001
1010
0100
0010
0001
1100
0000
0110
0110
,
0110
0000
1001
0000
0110
1100
0110
1100
0110
1100
0110
1100
0111
0000
0001
0000
,
1010
0100
0010
0001
1100
0001
0010
0001
,
1010
0100
0010
1000
0110
0001
0010
0100
,
1001
0010
0100
0001
0110
1000
0100
0001
,
1010
0100
1000
0010
0110
0001
0010
0001
,
1100
0001
0100
1000
0101
0010
0001
0100
,
0011
1000
0100
1000
0110
0001
0010
0001
,
1010
0100
1000
0010
0101
0010
0001
0100
,
0011
1000
0010
0100
0101
0010
0100
1000
,
1100
0001
0010
0001
1010
0010
0001
0010
,
0110
0001
1000
0001
1010
0100
0010
0001
,
0101
0010
0001
0100
1100
1000
0100
0010
,
1001
0001
0010
0100
0110
1000
0010
0100
,
1010
0001
0100
0010
0101
1000
0001
0010
,
1100
0001
1000
0100
0011
0100
0010
0100
,
0101
0000
0010
0000
0100
0000
0010
0000
1010
0000
0100
0000
0011
0011
0011
0110
,
1001
0110
1001
0110
1001
0110
1001
0110
0001
0000
0010
0000
0111
1000
0001
1000
,
0110
1000
0001
1000
0110
1000
0001
1000
0110
1000
0001
1000
0110
1000
0001
1000
,
1010
0001
0010
0100
1010
0001
0010
0100
1010
0001
0010
0100
0011
0100
0010
0100
,
0011
0100
0010
0100
0011
0100
0010
0100
0011
0100
0010
0100
1001
0100
0010
0100
,
1001
0100
0010
0100
1001
0100
0010
0100
1001
0100
0010
0100
1001
0100
0001
0100
,
1010
0100
0001
0100
1010
0100
0001
0100
1010
0100
0001
0100
0110
0001
0010
0001
,
0110
0001
0010
0001
0110
0001
0010
0001
0110
0001
0010
0001
1010
0100
0010
0001
,
1010
0100
0010
0001
1010
0100
0010
0001
1010
0100
0010
0001
0101
0110
1010
0000
,
0101
1010
0101
1010
0101
1010
0101
1010
0101
1010
0101
1010
0112
0000
1000
0000
,
1100
0010
1023
0100
1001
0001
1230
1000
,
1001
0010
0312
1000
0110
0100
2013
0100
,
0011
0001
3120
0001
1001
0100
1130
0000
,
0110
0000
0011
0000
0110
0000
1200
1000
,
1001
0010
1320
0100
1001
0001
1230
1000
,
1001
0010
0312
1000
0110
0100
2013
0100
,
0011
0000
0001
0000
3120
1001
1100
1001
1100
1001
1100
1001
1131
0000
0000
0000
,
0000
0000
0000
0101
,
0000
0000
0000
0000
0000
0000
0000
0000
0000
0000
0000
0000
0000
0000
0000
0001
0000
0000
0000
0000
0000
0000
0000
0000
0000
0000
0000
0000
0000
0000
0000
0000
,
0000
0000
0000
0000
0000
1000
0000
0000
0000
0000
0000
0000
0000
0000
0000
0000
0000
0000
0000
0000
0000
0000
0000
0000
0000
0000
0000
0010
0000
0000
0000
0000
,
0000
0000
0000
0000
0000
0000
0000
0000
0000
0000
0000
0000
0000
0000
0000
0000
0000
1001
0000
0000
0000
0000
0000
0000
0000
0000
0000
0000
0000
0000
0000
0000
,
0000
0000
0000
0000
0000
0000
0000
0010
0000
0000
0000
0000
0000
0000
0000
0000
0000
0000
0000
0000
0000
0000
0000
0000
0000
0000
0000
0000
0000
0000
0100
0000
,
0000
0000
0000
0000
0000
1000
0000
0000
,
0000
0000
0000
0000
0000
2222
0000
0000
0000
0000
0000
0000
0000
0000
0000
0000
,
3333
0000
0000
0000
;

//---------------dance-single - ----------------
#NOTES:
     dance-single:
     :
     Easy:
     1:
     0.000,0.000,0.000,0.000,0.000,0.000,0.000,0.000,0.000,0.000:
0000
0000
0000
0000
;

//---------------dance-single - Copied from----------------
#NOTES:
     dance-single:
     Copied from:
     Medium:
     1:
     0.000,0.000,0.000,0.000,0.000,0.000,0.000,0.000,0.000,0.000:
0000
0000
0000
0000
;
